Всегда рабочее зеркало без VPN и Proxy просто перед .vidak.icu напиши любое слово или цифру, Пример http://o3st.vidak.icu

MVO

2 сезон

2 сезон

1

1 сезон

iTunes

2 сезон

13

1 сезон

Распродажа

pack

Рекомендуем

Пиратка

30

ВАЖНО

RePack

MK11

RePack

jed

RePack

fifa19

RePack

RDR2

RePack

NEED FOR SPEED™ PAYBACK

Кинопоиск HD

6 сезон

 Острые козырьки 6 сезон

Все сериалы

все сериалы на PB.wtf

RePack

FAR CRY 5

Anonymous, нам критически не хватает 5601 руб. на оплату серверов и переферии за Апрель, помоги нам пожалуйста, вся надежда только на тебя. В благодарность мы отключим тебе всю рекламу на сайте!

×
  
Magnet ссылка

Смерть на Ниле / Death on the Nile (Кеннет Брана) [2022, Детектив, криминал, драма, HDRip-AVC] DUB [TS] 03s.vidak.icu

Смерть на Ниле через торрент 03s.vidak.icu

Раздают: 2 [ 0 KB/s ]
Размер: 2.17 GB | Добавлен: 1 мес. 22 д. назад | Торрент скачан:129 раз
Смотреть онлайн Смерть на Ниле | Скачать    Ребята, помогите собрать деньги на оплату серверов!!!

27-03-2022 12:26 Смерть на Ниле Скачать торрент  

Смерть на Ниле
Death on the Nile

Год выпуска: 2022
Страна: США, Великобритания
Выпущено: 20th Century Studios, Kinberg Genre, Scott Free Productions
Жанр: Детектив, криминал, драма
Продолжительность: 02:06:57
Перевод: Дублированный | TS
Субтитры: русские (forsed), английские full (SDH)

Режиссер: Кеннет Брана

rating


В ролях: Кеннет Брана, Галь Гадот, Роуз Лесли, Арми Хаммер, Эмма Маккей, Летишиа Райт, Дженнифер Сондерс, Софи Оконедо, Аннетт Бенинг, Том Бейтман

Описание: На этот раз необходимость расследовать загадочное убийство, отвлекаясь от собственного отдыха, настигает Пуаро на борту роскошного круизного парохода, следующего вдоль по Нилу.

Качество: HDRip-AVC
Формат: MKV

Видео: MPEG-4 AVC, 1152x480 (2.40:1), 23.976 fps, ~ 1873 kbps avg
Аудио 1: 48 kHz, AC3 Dolby Digital, 2.0 ch, ~ 192 kbps .Rus
Аудио 2: 48 kHz, AC3 Dolby Digital, 5.1 ch, ~ 384 kbps .Eng
скриншот  скриншот  скриншот  скриншот  скриншот  

General
Unique ID : 33940789110064639702803336043802439242 (0x1988C219F0C46653A42929BF0BB4AE4A)
Complete name : Death on the Nile.2022.HDRip.Dub.Mix.mkv
Format : Matroska
Format version : Version 4 / Version 2
File size : 2.17 GiB
Duration : 2 h 6 min
Overall bit rate : 2 451 kb/s
Encoded date : UTC 2022-03-27 20:53:11
Writing application : mkvmerge v64.0.0 ('Willows') 64-bit
Writing library : libebml v1.4.2 + libmatroska v1.6.4

Video
ID : 1
Format : AVC
Format/Info : Advanced Video Codec
Format profile : [email protected]
Format settings : CABAC / 16 Ref Frames
Format settings, CABAC : Yes
Format settings, ReFrames : 16 frames
Codec ID : V_MPEG4/ISO/AVC
Duration : 2 h 6 min
Bit rate : 1 873 kb/s
Width : 1 152 pixels
Height : 480 pixels
Display aspect ratio : 2.40:1
Frame rate mode : Constant
Frame rate : 23.976 (24000/1001) FPS
Color space : YUV
Chroma subsampling : 4:2:0
Bit depth : 8 bits
Scan type : Progressive
Bits/(Pixel*Frame) : 0.141
Stream size : 1.66 GiB (76%)
Writing library : x264 core 148 r2638 7599210
Encoding settings : cabac=1 / ref=16 / deblock=1:0:0 / analyse=0x3:0x113 / me=umh / subme=10 / psy=1 / psy_rd=1.00:0.00 /
mixed_ref=1 / me_range=32 / chroma_me=1 / trellis=2 / 8x8dct=1 / cqm=0 / deadzone=21,11 / fast_pskip=1 / chroma_qp_offset=-2 / threads=12 /
lookahead_threads=3 / sliced_threads=0 / nr=0 / decimate=1 / interlaced=0 / bluray_compat=0 / constrained_intra=0 / bframes=16 / b_pyramid=2 /
b_adapt=2 / b_bias=0 / direct=3 / weightb=1 / open_gop=0 / weightp=2 / keyint=250 / keyint_min=23 / scenecut=40 / intra_refresh=0 / rc_lookahead=60 /
rc=2pass / mbtree=1 / bitrate=1873 / ratetol=1.0 / qcomp=0.60 / qpmin=0 / qpmax=69 / qpstep=4 / cplxblur=20.0 / qblur=0.5 / ip_ratio=1.40 / aq=1:1.00
Default : Yes
Forced : No
Color range : Limited
Color primaries : BT.709
Transfer characteristics : BT.709
Matrix coefficients : BT.709

Audio #1
ID : 2
Format : AC-3
Format/Info : Audio Coding 3
Codec ID : A_AC3
Duration : 2 h 6 min
Bit rate mode : Constant
Bit rate : 192 kb/s
Channel(s) : 2 channels
Channel positions : Front: L R
Sampling rate : 48.0 kHz
Frame rate : 31.250 FPS (1536 SPF)
Bit depth : 16 bits
Compression mode : Lossy
Stream size : 174 MiB (8%)
Title : Dub. Rus. AC3 2.0. 192 kbps
Language : Russian
Service kind : Complete Main
Default : Yes
Forced : No

Audio #2
ID : 3
Format : AC-3
Format/Info : Audio Coding 3
Codec ID : A_AC3
Duration : 2 h 6 min
Bit rate mode : Constant
Bit rate : 384 kb/s
Channel(s) : 6 channels
Channel positions : Front: L C R, Side: L R, LFE
Sampling rate : 48.0 kHz
Frame rate : 31.250 FPS (1536 SPF)
Bit depth : 16 bits
Compression mode : Lossy
Stream size : 349 MiB (16%)
Title : Eng. AC3 5.1. 384 kbps
Language : English
Service kind : Complete Main
Default : No
Forced : No

Text #1
ID : 4
Format : UTF-8
Codec ID : S_TEXT/UTF8
Codec ID/Info : UTF-8 Plain Text
Duration : 1 h 58 min
Bit rate : 7 b/s
Count of elements : 132
Stream size : 6.25 KiB (0%)
Title : Forsed. ru
Language : Russian
Default : Yes
Forced : No

Text #2
ID : 5
Format : UTF-8
Codec ID : S_TEXT/UTF8
Codec ID/Info : UTF-8 Plain Text
Duration : 1 h 58 min
Bit rate : 76 b/s
Count of elements : 2055
Stream size : 66.9 KiB (0%)
Title : Eng. full. (SDH)
Language : English
Default : No
03s.vidak.icu



Скачать Смерть на Ниле через торрент http://i4.imageban.ru/out/2022/03/27/7d86e012a7ec2d930df60bffd63c8275.jpg Скачать, смотреть онлайн Смерть на Ниле бесплантно в хорошем качестве Описание: На этот раз необходимость расследовать загадочное убийство, отвлекаясь от собственного отдыха, настигает Пуаро на борту ... 9.2 10 14
Торрент: Зарегистрирован [2022-03-28 08:59] · скачан: 129 раз
Статус: T временная
Размер: 2.17 GB
Как cкачать? Как скачать Смерть на Ниле через торрент | UTorrent

% Раздел Тема Автор DL S | L
Ultra HD (UHD: 2K, 4K, 8K) — видео сверхвысокой чёткости [ 49 GB ] Смерть на Ниле / Death on the Nile [2022 UHD BDRemux 2160p] MVO [Jaskier] bober100 Скачать
4 | 0
Фильмы [HD 720p, 1080p] (Хороший звук DUB, MVO) [ 12.46 GB ] Смерть на Ниле / Death on the Nile [2022 BDRip 1080p] MVO [Jaskier] bober100 Скачать
24 | 0
Фильмы 2022 [DVDrip, WEB-DLRip, HDrip] (DUB, MVO) [ 2.53 GB ] Смерть на Ниле / Death on the Nile [2022 HDRip-AVC] MVO [Jaskier] от ExKinoRay Lithuania Скачать
13 | 0
Фильмы 2022 [DVDrip, WEB-DLRip, HDrip] (DUB, MVO) [ 2.65 GB ] Смерть на Ниле / Death on the Nile [2022 HDRip-AVC] MVO [Jaskier] bober100 Скачать
30 | 1
T Фильмы (мультфильмы) cо спонсором показа (Новинки AVI/MKV) [ 6.86 GB ] Смерть на Ниле / Death on the Nile [2022 BDRip 720p] DUB [Line] bober100 Скачать
11 | 0
T Фильмы [HD 720p, 1080p] (Хороший звук DUB, MVO) [ 16.08 GB ] Смерть на Ниле / Death on the Nile [2022 BDRip 1080p] DUB [Sound Master / TS] bober100 Скачать
6 | 0
Фильмы с украинским озвучиванием [ 2.1 GB ] Смерть на Ниле / Death on the Nile [2022 BDRip 1080p] [Ukr DUB] killermax2013 Скачать
3 | 0

28-11-2019 20:33  

Отключить всю рекламу на сайте

    Дорогой пользователь! Огромная просьба, поблагодарите релизера, оцените раздачу и оставьте свои комментарий, если Вы скачали Смерть на Ниле через торрент бесплатно!
    Комментировать посты могут только пользователи прошедшие не сложную регистрацию
    Показать сообщения:    

    Смерть на Ниле через торрент
    Скачать бесплатно Смерть на Ниле
    Смерть на Ниле скачать торрент
    Смерть на Ниле смотреть онлайн
    Cкачать фильм Смерть на Ниле бесплатно
    Смерть на Ниле скачать торрент в хорошем качестве
    Смерть на Ниле смотреть онлайн бесплатно в хорошем качестве


    Вы можете начинать темы
    Вы можете отвечать на сообщения
    Вы не можете редактировать свои сообщения
    Вы не можете удалять свои сообщения
    Вы не можете голосовать в опросах
    Вы не можете прикреплять файлы к сообщениям
    Вы можете скачивать файлы